Universal Access To All Knowledge
Home Donate | Store | Blog | FAQ | Jobs | Volunteer Positions | Contact | Bios | Forums | Projects | Terms, Privacy, & Copyright
Search: Advanced Search
Anonymous User (login or join us)
Upload

Reply to this post | See parent post | Go Back
View Post [edit]

Poster: CharlieMiller Date: Nov 6, 2007 9:17am
Forum: GratefulDead Subject: Re: 10/16/74 winterland charlie miller

This is the version you want. I put it out yesterday:

Grateful Dead - October 16, 1974
Winterland Arena - San Francisco, CA

Recording Info:
SBD -> Master Reel -> Dat (44.1k)

Transfer Info:
Dat (Sony R500) -> SEK'D Prodif Plus -> Samplitude v7.02 Professional -> FLAC
(4 Discs Audio / 3 Discs FLAC)

All Transfers and Mastering By Charlie Miller
charliemiller87@earthlink.net
November 5, 2007

Patch Info:
-- Bertha through 1:16 of Deal patched from AUD source
-- Reel flip in Playing In The Band patched from mulitrack reel (not from GDM)
-- Set 1 tunings patched from Master Reel -> Cass -> Dat
-- 18:03 of PITB through 7:35 of Jam patched from Master Reel -> Cass -> Dat

Notes:
-- All disc changes are seamless
-- Thanks to Rob Eaton for lending me his Dats
-- I can confirm lineage 100% accurate
-- Reel flips in Eyes and UJB smoothed with crossfade

Set 1:
d1t01 - Bertha
d1t02 - Jack Straw
d1t03 - Deal
d1t04 - Mexicali Blues
d1t05 - It Must Have Been The Roses
d1t06 - Beat It On Down The Line
d1t07 - Scarlet Begonias
d1t08 - Me And Bobby McGee
d1t09 - Tennessee Jed
d1t10 - Cumberland Blues
d1t11 - Row Jimmy
d2t01 - Playing In The Band

Set 2:
d2t02 - Phil And Ned ->
d2t03 - Jam ->
d3t01 - Space ->
d3t02 - Wharf Rat ->
d3t03 - Eyes Of The World
d3t04 - Big River
d3t05 - Ship Of Fools
d3t06 - Truckin' ->
d3t07 - Goin' Down The Road Feeling Bad ->
d3t08 - Uncle John's Band
d4t01 - Johnny B. Goode

Encore:
d4t02 - Happy Birthday Bobby
d4t03 - U.S. Blues


SHNTOOL OUTPUT:
length expanded size cdr WAVE problems filename
5:49.02 61568348 --- -- ----- gd74-10-16d1t01.wav
5:10.30 54754604 --- -- ----- gd74-10-16d1t02.wav
6:25.38 68003420 --- -- ----- gd74-10-16d1t03.wav
3:50.00 40572044 --- -- ----- gd74-10-16d1t04.wav
7:04.24 74850092 --- -- ----- gd74-10-16d1t05.wav
4:58.36 52651916 --- -- ----- gd74-10-16d1t06.wav
12:03.24 127593692 --- -- ----- gd74-10-16d1t07.wav
5:22.47 56911388 --- -- ----- gd74-10-16d1t08.wav
9:09.42 96942428 --- -- ----- gd74-10-16d1t09.wav
7:23.39 78236972 --- -- ----- gd74-10-16d1t10.wav
11:12.74 118714892 --- -- ----- gd74-10-16d1t11.wav
31:39.19 335028332 --- -- ----- gd74-10-16d2t01.wav
23:54.02 252962348 --- -- ----- gd74-10-16d2t02.wav
23:19.63 246931820 --- -- ----- gd74-10-16d2t03.wav
1:56.23 20516540 --- -- ----- gd74-10-16d3t01.wav
16:45.11 177307916 --- -- ----- gd74-10-16d3t02.wav
19:31.45 206670284 --- -- ----- gd74-10-16d3t03.wav
5:47.74 61384892 --- -- ----- gd74-10-16d3t04.wav
7:11.23 76082540 --- -- ----- gd74-10-16d3t05.wav
10:05.00 106722044 --- -- ----- gd74-10-16d3t06.wav
8:13.33 87042860 --- -- ----- gd74-10-16d3t07.wav
8:26.55 89387804 --- -- ----- gd74-10-16d3t08.wav
5:24.54 57280652 --- -- ----- gd74-10-16d4t01.wav
1:53.10 19956764 --- -- ----- gd74-10-16d4t02.wav
6:03.55 64162604 --- -- ----- gd74-10-16d4t03.wav
248:41.73 2632237196 B (totals for 25 files)

Reply to this post
Reply [edit]

Poster: jerkwaterdan Date: Nov 6, 2007 1:37pm
Forum: GratefulDead Subject: Re: 10/16/74 winterland charlie miller

Thanks Charlie! This show has my all-time favorite version of Playing In The Band on it, the one featured in The Grateful Dead Movie. Nice to hear the whole show in such fine quality!

Reply to this post
Reply [edit]

Poster: SomeDarkHollow Date: Nov 6, 2007 10:19am
Forum: GratefulDead Subject: Re: 10/16/74 winterland charlie miller

1st: I'll second the call for unending thanks for the work you have done, Heads and those yet-to-become-heads are eternally in your debt.

2nd: You actually read some of our "stuff" (going over the majority of the last few days' output, "stuff" is perhaps too kind a word)? Kudos to your iron constitution. Many a lesser man has been driven insane by reading even a little of the offal we produce here.

Reply to this post
Reply [edit]

Poster: William Tell Date: Nov 6, 2007 2:15pm
Forum: GratefulDead Subject: Re: 10/16/74 winterland charlie miller

One man's offal is another man's crap.

Reply to this post
Reply [edit]

Poster: SomeDarkHollow Date: Nov 6, 2007 5:20pm
Forum: GratefulDead Subject: Re: 10/16/74 winterland charlie miller

That's a tune Robert Hunter SHOULD have written.

Reply to this post
Reply [edit]

Poster: mcgannahan Date: Nov 6, 2007 9:58am
Forum: GratefulDead Subject: Re: 10/16/74 winterland charlie miller

let's all give this man a round of applause. his efforts are making this world a deader place. thanks a million charlie for all that you do for us.

Reply to this post
Reply [edit]

Poster: William Tell Date: Nov 6, 2007 10:05am
Forum: GratefulDead Subject: Re: 10/16/74 winterland charlie miller

Second!

Reply to this post
Reply [edit]

Poster: wineland Date: Nov 6, 2007 10:24am
Forum: GratefulDead Subject: Re: 10/16/74 winterland charlie miller

Amen!

Reply to this post
Reply [edit]

Poster: cousinkix1953 Date: Nov 6, 2007 9:46pm
Forum: GratefulDead Subject: Re: 10/16/74 winterland charlie miller

Amen CM. It beats the shit out of those official RHINO CDs coming out these days. Those corporate idiots are back to selling a bunch on LIVE "greatest hits" albums called the ROAD TRIPS from a deluge of misc. dates.

No more Dicks Picks. No more Grateful Dead downloads either. We are bback to the bootlegs again...